The Pogues - Thousands Are Sailing (Live) 04:52.
Wav Peak level.4 Extraction speed.8 X Track quality 100.0 Test CRC CB70794F Copy CRC CB70794F Accurately ripped (confidence 3) A0FE7B15 (AR v2) Copy OK Track 10 Filename C:Usersbiafr_000MusicThe Pogues - Streams Of Whiskey (2002) flac10 - Thousands Are Sailing.
Wav Peak level.4 Extraction speed.7 X Track quality 100.0 Test CRC C3C39679 Copy CRC C3C39679 Accurately ripped (confidence 3) AC94668E (AR v2) Copy OK Track 9 Filename C:Usersbiafr_000MusicThe Pogues - Streams Of Whiskey (2002) flac09 - Summer In Siam.
Command line compressor : C:Program Files (x86)Exact Audio CopyFlacflac.The poor quality of the album keeps even the best numbers from living up to the studio versions.Summer in Siam 03:50.His stuporous singing and the farting horn sounds on "Yeah, Yeah, Yeah, Yeah, Yeah" don't stop the song from rocking.The Pogues - Rain Street (Live) 03:51.Used output format : User Defined Encoder.This would deserve a worse rating, except that ultimately, it's too damn much fun.Read mode : Secure, utilize accurate stream : Yes, defeat audio cache : Yes.Body of an American 04:25.MacGowan's own vocals get progressively worse throughout the show; he hacks out "Dirty Old Town" like phlegm from his lungs, and the otherwise terrific lyrics to "The Sickbed of Cuchulainn" just slur together.From the title track through "Fiesta the band is unrelenting, and it sounds like you're listening from the second row, mashed in by hundreds of screaming fans.This was obviously a great concert and everyone is having a blast.Null samples used in CRC calculations : Yes.Box Set (5 CD live albums : 2002 - Streams Of Whiskey - Live idm cracked version 2012 In Leysin, Switzerland Live At The Brixton Academy.Used drive : tsstcorpcddvdw SH-224DB Adapter: 1 ID:.




Streams of Whiskey takes the subtleties and peculiar genius of the Pogues and smashes them into a big loud mess.The Pogues - If I Should Fall from Grace With God (Live) 02:18.The Pogues - Yeah, Yeah, Yeah, Yeah, Yeah (Live) 05:40.Finer MacGowan * 3:10 12, dirty Old Town, written-By Ewan MacColl 4:21 13 The Sickbed Of Cuchulainn 3:23 14 Yeah, Yeah, Yeah, Yeah, Yeah 5:40 15 Fiesta Written-By Kotsher Finer Lindt MacGowan * 4:38 16 Sally MacLennane 2:53 Other Versions (5 of 7) View All.Alternative, Rock, Punk, Folk Author: vicor 61, 13:16.Wav Peak level.2 Extraction speed.3 X Track quality 100.0 Test CRC BAA55142 Copy CRC BAA55142 Accurately ripped (confidence 3) 17335C3C (AR v2) Copy OK Track 5 Filename C:Usersbiafr_000MusicThe Pogues - Streams Of Whiskey (2002) flac05 - Rain Street.If I Should Fall from Grace With God 02:18.The Pogues / Streams Of Whiskey.Get this torrent, pLAY/stream torrent, comments).Wav Peak level.3 Extraction speed.0 X Track quality 100.0 Test CRC FA05C25C Copy CRC FA05C25C Accurately ripped (confidence 3) 71BC9503 (AR v2) Copy OK Track 4 Filename C:Usersbiafr_000MusicThe Pogues - Streams Of Whiskey (2002) flac04 - Young Ned Of The Hill.Wav Peak level.3 Extraction speed.4 X Track quality 100.0 Test CRC C6F998DD Copy CRC C6F998DD Accurately ripped (confidence 3) 2450C18D (AR v2) Copy OK Track 8 Filename C:Usersbiafr_000MusicThe Pogues - Streams Of Whiskey (2002) flac08 - The Body Of An American.Artist : The Pogues, title Of Album : Streams Of Whiskey, year Of Release : 2002.The Pogues - Boys from the County Hell (Live) 03:31.
genre : Folk Rock, Irish Rock, Celtic Punk Years : Country : Great Britain Format : MP3 Bitrate : 320 kbps Number of discs :.





The Pogues - Streams of Whiskey (Live) 02:32.
The Pogues - Fiesta (Live) 04:38.